» » Teo Macero With The Prestige Jazz Quartet - Teo

Teo Macero With The Prestige Jazz Quartet - Teo album flac


Performer: Teo Macero
Genre: Jazz
Title: Teo
Country: US
Released: 1992
Style: Bop
FLAC version ZIP size: 1528 mb
MP3 version ZIP size: 1311 mb
WMA version ZIP size: 1786 mb
Rating: 4.2
Votes: 921
Other Formats: AIFF AHX VOC MIDI AU XM MPC

This CD reissue features tenor saxophonist Teo Macero (who would later become much better known as a record producer) in as straight-ahead a setting as he ever appeared. With stimulating support from pianist Mal Waldron, vibraphonist Teddy Charles, bassist Addison Farmer, and drummer Jerry Segal, Macero performs a variety of then-recent ballads, of which only "Star Eyes" (arranged by Hall Overton) did not come from Teo or his associates. The music is advanced but from the jazz tradition, and overall this set is more noteworthy for Macero's interesting playing than for the tunes.

Label: Original Jazz Classics ‎– OJCCD-1715-2, Prestige ‎– P-7104.

Other albums by Teo Macero with the Prestige Jazz Quartet. The Prestige Jazz Quartet. Teo Macero with the Prestige Jazz Quartet 7/17/1992. This CD reissue features tenor saxophonist Teo Macero (who would later become much better known as a record producer) in as straight-ahead a setting as he ever appeared. With stimulating support from pianist Mal Waldron, vibraphonist Teddy Charles, bassist Addison Farmer, and drummer Jerry Segal, Macero performs a variety of then-recent ballads, of which only "Star Eyes" (arranged by Hall Overton) did not come from Teo or his associates

Teo Macero, The Prestige Jazz Quartet. Tracks count: 6. Views: 4. Teo Macero, The Prestige Jazz Quartet - What's Not 05:53. Teo Macero, The Prestige Jazz Quartet - Please Don't Go Now 06:40. Teo Macero, The Prestige Jazz Quartet - Ghost Story 06:26.

What's Not (5:54) Personnel: Teo Macero - ts Teddy Charles - vib Mal Waldron - p Addison Farmer - b Jerry Segal - d Re. Hackensack, NY, April 27, 1957. FILE "02 - Please Don't Go No. av" WAVE INDEX 01 00:00:00 TRACK 03 AUDIO TITLE "Just Spring" PERFORMER "Teo Macero with The Prestige Jazz Quartet" INDEX 00 06:40:70 FILE "03 - Just Spring. wav" WAVE INDEX 01 00:00:00 TRACK 04 AUDIO TITLE "Star Eyes" PERFORMER "Teo Macero with The Prestige Jazz Quartet" INDEX 00 04:51:60. FILE "04 - Star Eyes. wav" WAVE INDEX 01 00:00:00 TRACK 05 AUDIO TITLE "Polody" PERFORMER "Teo Macero with The Prestige Jazz Quartet" INDEX 00 07:09:65 FILE "05 - Polody.

Teo (also referred to as Teo Macero and the Prestige Jazz Quartet) is an album by saxophonist Teo Macero fronting the Prestige Jazz Quartet, a group nominally led by jazz vibraphonist Teddy Charles, which was recorded in 1957 for the Prestige label. Ghost Story" (Mal Waldron) - 6:27.

Tracklist Hide Credits

1 Ghost Story
Written-By – Mal Waldron
6:27
2 Please Don't Go Now
Written-By – John Ross
6:38
3 Just Spring
Written-By – Teo Macero
4:52
4 Star Eyes
Written-By – Raye*, DePaul*
7:09
5 Polody
Written-By – Teddy Charles
5:15
6 What's Not
Written-By – Mal Waldron
5:52

Credits

  • Bass – Addison Farmer
  • Design [Cover] – Reid Miles
  • Drums – Jerry Segal
  • Engineer [Recording] – Rudy Van Gelder
  • Photography By – Tom Carroll
  • Piano – Mal Waldron
  • Remastered By – Phil De Lancie
  • Tenor Saxophone – Teo Macero
  • Vibraphone, Supervised By – Teddy Charles

Notes

Recorded in Hackensack, NJ; April 27, 1957

Digital remastering, 1992-(Fantasy Studios, Berkeley)

Barcode and Other Identifiers

  • Barcode (string): 02521817152

Other versions

Category Artist Title (Format) Label Category Country Year
PRLP 7104 Teo Macero With The Prestige Jazz Quartet Teo Macero With The Prestige Jazz Quartet - Teo ‎(LP, Album, Mono) Prestige PRLP 7104 US 1957
SMJ-6618 Teo Macero With The Prestige Jazz Quartet Teo Macero With The Prestige Jazz Quartet - Teo ‎(LP, Album, Mono) Prestige SMJ-6618 Japan 1979
RANK-5024 Teo Macero With The Prestige Jazz Quartet Teo Macero With The Prestige Jazz Quartet - Teo ‎(LP, Album, Mono, Promo) Top Rank International RANK-5024 Japan Unknown
32-113 Teo Macero With The Prestige Jazz Quartet Teo Macero With The Prestige Jazz Quartet - Teo ‎(LP, Album, Mono) Esquire 32-113 UK 1957
SMJ-6618 Teo Macero With The Prestige Jazz Quartet Teo Macero With The Prestige Jazz Quartet - Teo ‎(LP, Album, Mono, Promo) Prestige SMJ-6618 Japan 1979